Filecrypt zeigt vereinzelt Files als "n/a". Die Downloads sind trotzdem komplett.

DNS SERVER AENDERNum der staatlichen Zensur zu umgehen. Sollten wir von eurem Provider geseprrt werden, nutzt den TOR BROWSER oder ändert euren DNS SERVER.

Filmwünsche können bei uns im Forum abgegeben werden

Wir Speichern Nicht




 
 
 
Top Releases
Mission.Impossible.Fallout.2...
Feinde.Hostiles.2017.DUAL.CO...
The.Miracle.Season.Ihr.groes...
The.Miracle.Season.Ihr.groes...
The.Miracle.Season.Ihr.groes...
Le.Jeu.Nichts.zu.verbergen.2...
Le.Jeu.Nichts.zu.verbergen.2...
Cam.2018.German.DL.1080p.WEB...
Cam.2018.German.DL.720p.WEB....
Teen.Titans.Go.To.the.Movies...

Cinedubs
The.Happytime.Murders.Kein.S...
The.Happytime.Murders.Kein.S...
Peppermint.Angel.of.Vengeanc...
Peppermint.Angel.of.Vengeanc...
The.Nun.German.AC3D.DL.1080p...
Christopher.Robin.German.DL....
Christopher.Robin.German.DL....
A.Star.Is.Born.German.DL.AC3...
A.Star.Is.Born.German.DL.AC3...
Mission.Impossible.Fallout.G...

Neuerscheinungen 2017-18
Cliffhanger.Nur.die.Starken....
Cliffhanger.Nur.die.Starken....
Devils.Gate.Pforte.zur.Hoell...
Devils.Gate.Pforte.zur.Hoell...
Beautiful.People.2014.German...
Immortal.Wars.Nur.der.Staerk...
Beautiful.People.2014.DUAL.C...
Devils.Gate.Pforte.zur.Hoell...
Night.Of.The.Demons.1988.DUA...
Africa.Addio.1966.DUAL.COMPL...

XXX
Nerd.Pervert.Vol.30.XXX.720p...
Nerd.Pervert.Vol.30.XXX.1080...
Private.18.10.31.Miss.Meliss...
NHLPCentral.18.05.24.Kate.An...
PornMegaLoad.18.10.28.Korina...
PublicDisgrace.18.10.29.Mz.B...
PornstarPlatinum.18.10.30.Jo...
PlayboyPlus.18.10.31.Alice.A...
PlumperPass.18.10.31.Naia.Be...
NHLPCentral.18.06.11.Karina....
Private.18.10.29.Latina.Andr...
PornFidelity.E766.Sophia.Lux...
PublicBang.18.10.28.Ginebra....
PornMegaLoad.18.10.29.Savana...
NHLPCentral.18.06.07.Beth.Be...
PureTaboo.18.10.30.Kendra.Sp...
PublicAgent.18.10.30.Akasha....
PornstarsLikeItBig.18.10.31....
PlumperPass.18.10.29.Veruca....
PornstarPlatinum.18.10.31.Al...

3D
Die.Unglaublichen.2.2018.3D....
Skyscraper.3D.2018.MULTi.COM...
Ant-Man.And.The.Wasp.3D.2018...
Ant.Man.and.the.Wasp.3D.2018...
Die.Unglaublichen.2.3D.2018....
Die.Unglaublichen.2.2018.3D....
Die.Unglaublichen.2.2018.3D....
Sharknado.6.The.Last.One.3D....
Deep.Kleine.Helden.der.Tiefs...
Deep.3D.2017.MULTI.COMPLETE....
Detective.Dee.und.die.Legend...
Detective.Dee.und.die.Legend...
Skyscraper.3D.German.DL.AC3....
Ant-Man.and.the.Wasp.2018.3D...
Jurassic.World.Das.gefallene...

Old_Stuff
Dunkirk.1958.COMPLETE.BLURAY...
Das.Wunder.von.Manhattan.199...
The.Amazing.Spiderman.2.Rise...
Rise.of.the.Predator.2014.Ge...
Detective.Dee.und.das.Geheim...
Detective.Dee.Und.Der.Fluch....
Ghost.Rider.Spirit.of.Vengea...
Species.IV.Das.Erwachen.2007...
Species.IV.Das.Erwachen.2007...
Hotel.Transsilvanien.2012.Ge...
The.Dead.2010.German.DL.1080...
The.Dead.2.India.2013.German...
Britney.Spears.Live.The.Femm...
Buffy.The.Vampire.Slayer.199...
IMAX.Ride.Around.The.World.2...

Filme
Skin.Creepers.2018.German.10...
Outlander.S04.German.DD51.DL...
Outlander.S04.German.DD51.DL...
Die.Simpsons.S29.GERMAN.DUBB...
Wrecked.-.Voll.abgestuerzt.S...
The.Bite.UNCUT.1989.German.A...
Wrecked.S03.GERMAN.DUBBED.72...
NCIS.S15.GERMAN.DUBBED.DL.72...
NCIS.Los.Angeles.S09.COMPLET...
Cemetery.Junction.2010.Germa...
Frankenstein.Das.Experiment....
Fremde.Wesen.1997.German.DL....
Walt.Disneys.Superhirn.in.Te...
Ghostbusters.1984.DTS-HD.DL....
Die.Verachtung.1963.BluRay.1...
Drei.Schlappschwaenze.auf.gr...
Vertigo.Aus.dem.Reich.der.To...
Arrow.S06.GERMAN.DL.1080p.HD...
Arrow.S06.GERMAN.DL.720p.HDT...
Black.Lightning.S02.GERMAN.D...
Black.Lightning.S02.GERMAN.D...
Selfless.2015.German.DL.1080...
Full.Speed.2016.German.1080p...
Plan.B.Scheiss.auf.Plan.A.20...

 
 
Outlander.S04.German.DD51.DL.720p.NetflixUHD.x264-TVS

Jahr: 2018
Genre: Drama | Fantasy | Romantik
Sprache: Deutsch AC3 | Englisch AC3
Laufzeit: 1h je Folge
Bitrate: 4100 Kbps
Format: MKV
Größe: 2,2 GB je Folge
Release:

Beschreibung:

Die Serie „Outlander“ basiert auf der Buchreihe (in Deutschland als „Highland-Saga“ veröffentlicht) von Bestseller-Autorin Diana Gabaldon und handelt von Claire, einer pragmatischen und sehr unabhängigen Krankenschwester, die im Zweiten Weltkrieg im Kampfgebiet arbeitet und als Hobbybotanikerin in Naturheilkunde sehr bewandert ist. Sie gerät nach Kriegsende während eines Urlaubs mit ihrem Ehemann Frank in den schottischen Highlands versehentlich durch einen alten Steinkreis ins Jahr 1743 - und damit in die Zeit des Zweiten Jakobitenaufstands, der vom englisch-besetzten Schottland aus einen Wechsel auf dem britischen Königsthron anstrebte.

 

enthaltene Folgen:

Outlander.S04E01.America.the.Beautiful.REPACK.German.DD51.DL.720p.NetflixUHD.x264-TVS NEU



General
Complete name                            : Outlander.S04E01.America.the.Beautiful.REPACK.German.DD51.DL.720p.NetflixUHD.x264-TVS\tvs-out-dd51-dl-7p-nfuhd-x264-401-rp.mkv
Format                                   : Matroska
Format version                           : Version 4 / Version 2
File size                                : 2.21 GiB
Duration                                 : 1h 2mn
Overall bit rate                         : 5 025 Kbps
Encoded date                             : UTC 2018-11-19 17:26:05
Writing application                      : mkvmerge v7.9.0 ('Birds') 64bit
Writing library                          : libebml v1.3.1 + libmatroska v1.4.2
DURATION                                 : 01:02:58.208000000
NUMBER_OF_FRAMES                         : 118069
NUMBER_OF_BYTES                          : 181353984
_STATISTICS_WRITING_APP                  : mkvmerge v7.9.0 ('Birds') 64bit
_STATISTICS_WRITING_DATE_UTC             : 2018-11-19 17:26:05
_STATISTICS_TAGS                         : BPS DURATION NUMBER_OF_FRAMES NUMBER_OF_BYTES

Video
ID                                       : 1
Format                                   : AVC
Format/Info                              : Advanced Video Codec
Format profile                           : High@L4.1
Format settings, CABAC                   : Yes
Format settings, ReFrames                : 9 frames
Codec ID                                 : V_MPEG4/ISO/AVC
Duration                                 : 1h 2mn
Bit rate                                 : 4 157 Kbps
Width                                    : 1 280 pixels
Height                                   : 720 pixels
Display aspect ratio                     : 16:9
Frame rate mode                          : Constant
Frame rate                               : 23.976 fps
Color space                              : YUV
Chroma subsampling                       : 4:2:0
Bit depth                                : 8 bits
Scan type                                : Progressive
Bits/(Pixel*Frame)                       : 0.188
Stream size                              : 1.83 GiB (83%)
Writing library                          : x264 core 152 r2851kMod ba24899
Encoding settings                        : cabac=1 / ref=9 / deblock=1:-3:-3 / analyse=0x3:0x133 / me=umh / subme=10 / psy=1 / fade_compensate=0.00 / psy_rd=1.00:0.00 / mixed_ref=1 / me_range=48 / chroma_me=1 / trellis=2 / 8x8dct=1 / cqm=0 / deadzone=21,11 / fast_pskip=0 / chroma_qp_offset=-2 / threads=12 / lookahead_threads=2 / sliced_threads=0 / nr=0 / decimate=0 / interlaced=0 / bluray_compat=0 / constrained_intra=0 / bframes=8 / b_pyramid=2 / b_adapt=2 / b_bias=0 / direct=3 / weightb=1 / open_gop=0 / weightp=2 / keyint=250 / keyint_min=23 / scenecut=40 / intra_refresh=0 / rc=crf / mbtree=0 / crf=17.0000 / qcomp=0.60 / qpmin=0 / qpmax=69 / qpstep=4 / ip_ratio=1.30 / pb_ratio=1.20 / aq=3:0.80
Language                                 : English
Default                                  : Yes
Forced                                   : No
DURATION                                 : 01:02:27.828000000
NUMBER_OF_FRAMES                         : 89858
NUMBER_OF_BYTES                          : 2010616740
_STATISTICS_WRITING_APP                  : mkvmerge v7.9.0 ('Birds') 64bit
_STATISTICS_WRITING_DATE_UTC             : 2018-11-19 17:26:05
_STATISTICS_TAGS                         : BPS DURATION NUMBER_OF_FRAMES NUMBER_OF_BYTES

Audio #1
ID                                       : 2
Format                                   : AC-3
Format/Info                              : Audio Coding 3
Mode extension                           : CM (complete main)
Format settings, Endianness              : Big
Codec ID                                 : A_AC3
Duration                                 : 1h 2mn
Bit rate mode                            : Constant
Bit rate                                 : 384 Kbps
Channel(s)                               : 6 channels
Channel positions                        : Front: L C R, Side: L R, LFE
Sampling rate                            : 48.0 KHz
Bit depth                                : 16 bits
Compression mode                         : Lossy
Stream size                              : 173 MiB (8%)
Language                                 : German
Default                                  : No
Forced                                   : No

Audio #2
ID                                       : 3
Format                                   : AC-3
Format/Info                              : Audio Coding 3
Mode extension                           : CM (complete main)
Format settings, Endianness              : Big
Codec ID                                 : A_AC3
Duration                                 : 1h 2mn
Bit rate mode                            : Constant
Bit rate                                 : 384 Kbps
Channel(s)                               : 6 channels
Channel positions                        : Front: L C R, Side: L R, LFE
Sampling rate                            : 48.0 KHz
Bit depth                                : 16 bits
Compression mode                         : Lossy
Stream size                              : 173 MiB (8%)
Language                                 : English
Default                                  : No
Forced                                   : No

Text #1
ID                                       : 4
Format                                   : UTF-8
Codec ID                                 : S_TEXT/UTF8
Codec ID/Info                            : UTF-8 Plain Text
Title                                    : Forced
Language                                 : German
Default                                  : Yes
Forced                                   : Yes

Text #2
ID                                       : 5
Format                                   : UTF-8
Codec ID                                 : S_TEXT/UTF8
Codec ID/Info                            : UTF-8 Plain Text
Language                                 : German
Default                                  : No
Forced                                   : No

Text #3
ID                                       : 6
Format                                   : UTF-8
Codec ID                                 : S_TEXT/UTF8
Codec ID/Info                            : UTF-8 Plain Text
Title                                    : SDH
Language                                 : English
Default                                  : No
Forced                                   : No

Text #4
ID                                       : 7
Format                                   : UTF-8
Codec ID                                 : S_TEXT/UTF8
Codec ID/Info                            : UTF-8 Plain Text
Language                                 : Arabic
Default                                  : No
Forced                                   : No

Text #5
ID                                       : 8
Format                                   : UTF-8
Codec ID                                 : S_TEXT/UTF8
Codec ID/Info                            : UTF-8 Plain Text
Language                                 : Spanish
Default                                  : No
Forced                                   : No

Text #6
ID                                       : 9
Format                                   : UTF-8
Codec ID                                 : S_TEXT/UTF8
Codec ID/Info                            : UTF-8 Plain Text
Language                                 : French
Default                                  : No
Forced                                   : No



Download:
Share-Online.biz Share-Online.bizShare-Online.bizShare-Online.biz | Rapidgator.net Rapidgator.netRapidgator.netRapidgator.net
 

Kommentare