Filecrypt zeigt vereinzelt Files als "n/a". Die Downloads sind trotzdem komplett.

DNS SERVER AENDERNum der staatlichen Zensur zu umgehen. Sollten wir von eurem Provider geseprrt werden, nutzt den TOR BROWSER oder ändert euren DNS SERVER.

Filmwünsche können bei uns im Forum abgegeben werden

Wir Speichern Nicht




 
 
 
Top Releases
The.Sun.at.Midnight.2016.GER...
The.Sun.at.Midnight.2016.GER...
Meg.2018.German.DTSHD.Dubbed...
Mission.Impossible.Fallout.2...
Mission.Impossible.Fallout.2...
Mission.Impossible.Fallout.2...
Feinde.Hostiles.2017.DUAL.CO...
The.Miracle.Season.Ihr.groes...
The.Miracle.Season.Ihr.groes...
The.Miracle.Season.Ihr.groes...

Cinedubs
The.Happytime.Murders.Kein.S...
The.Happytime.Murders.Kein.S...
Peppermint.Angel.of.Vengeanc...
Peppermint.Angel.of.Vengeanc...
The.Nun.German.AC3D.DL.1080p...
Christopher.Robin.German.DL....
Christopher.Robin.German.DL....
A.Star.Is.Born.German.DL.AC3...
A.Star.Is.Born.German.DL.AC3...
Mission.Impossible.Fallout.G...

Neuerscheinungen 2017-18
How.to.Party.with.Mom.German...
Cliffhanger.Nur.die.Starken....
Cliffhanger.Nur.die.Starken....
Devils.Gate.Pforte.zur.Hoell...
Devils.Gate.Pforte.zur.Hoell...
Beautiful.People.2014.German...
Immortal.Wars.Nur.der.Staerk...
Beautiful.People.2014.DUAL.C...
Devils.Gate.Pforte.zur.Hoell...
Night.Of.The.Demons.1988.DUA...

XXX
Nerd.Pervert.Vol.30.XXX.720p...
Nerd.Pervert.Vol.30.XXX.1080...
Private.18.10.31.Miss.Meliss...
NHLPCentral.18.05.24.Kate.An...
PornMegaLoad.18.10.28.Korina...
PublicDisgrace.18.10.29.Mz.B...
PornstarPlatinum.18.10.30.Jo...
PlayboyPlus.18.10.31.Alice.A...
PlumperPass.18.10.31.Naia.Be...
NHLPCentral.18.06.11.Karina....
Private.18.10.29.Latina.Andr...
PornFidelity.E766.Sophia.Lux...
PublicBang.18.10.28.Ginebra....
PornMegaLoad.18.10.29.Savana...
NHLPCentral.18.06.07.Beth.Be...
PureTaboo.18.10.30.Kendra.Sp...
PublicAgent.18.10.30.Akasha....
PornstarsLikeItBig.18.10.31....
PlumperPass.18.10.29.Veruca....
PornstarPlatinum.18.10.31.Al...

3D
Die.Unglaublichen.2.2018.3D....
Skyscraper.3D.2018.MULTi.COM...
Ant-Man.And.The.Wasp.3D.2018...
Ant.Man.and.the.Wasp.3D.2018...
Die.Unglaublichen.2.3D.2018....
Die.Unglaublichen.2.2018.3D....
Die.Unglaublichen.2.2018.3D....
Sharknado.6.The.Last.One.3D....
Deep.Kleine.Helden.der.Tiefs...
Deep.3D.2017.MULTI.COMPLETE....
Detective.Dee.und.die.Legend...
Detective.Dee.und.die.Legend...
Skyscraper.3D.German.DL.AC3....
Ant-Man.and.the.Wasp.2018.3D...
Jurassic.World.Das.gefallene...

Old_Stuff
Dunkirk.1958.COMPLETE.BLURAY...
Das.Wunder.von.Manhattan.199...
The.Amazing.Spiderman.2.Rise...
Rise.of.the.Predator.2014.Ge...
Detective.Dee.und.das.Geheim...
Detective.Dee.Und.Der.Fluch....
Ghost.Rider.Spirit.of.Vengea...
Species.IV.Das.Erwachen.2007...
Species.IV.Das.Erwachen.2007...
Hotel.Transsilvanien.2012.Ge...
The.Dead.2010.German.DL.1080...
The.Dead.2.India.2013.German...
Britney.Spears.Live.The.Femm...
Buffy.The.Vampire.Slayer.199...
IMAX.Ride.Around.The.World.2...

Filme
Preacher.S03.COMPLETE.German...
Preacher.S03.COMPLETE.German...
Poldark.2015.S04.German.DL.D...
Poldark.2015.S04.German.DL.D...
Tsunami.Die.Killerwelle.Teil...
Tsunami.Die.Killerwelle.Teil...
Truman.Der.Mann.Der.Praeside...
Turning.Tide.Zwischen.den.We...
TRON.Legacy.2010.German.DL.1...
Triumph.des.Geistes.Ein.Boxe...
Tristan.und.Isolde.2006.Germ...
Trishna.2011.German.DL.1080p...
Triple.xXx.2002.German.DTS.1...
Witching.and.Bitching.2013.G...
Wake.of.Death.2004.German.AC...
Dunkirk.1958.German.DTS-HD.D...
Skin.Creepers.2018.German.10...
Outlander.S04.German.DD51.DL...
Outlander.S04.German.DD51.DL...
Die.Simpsons.S29.GERMAN.DUBB...
Wrecked.-.Voll.abgestuerzt.S...
The.Bite.UNCUT.1989.German.A...
Wrecked.S03.GERMAN.DUBBED.72...
NCIS.S15.GERMAN.DUBBED.DL.72...

 
 
Turning.Tide.Zwischen.den.Wellen.2013.German.1080p.BluRay.x264-FRACTAL

Jahr: 2013
Genre: Drama
Sprache: Deutsch DTS
Laufzeit: 1h 41mn
Bitrate: 12.8 Mbps
Format: MKV
Größe: 9.04 GiB
Release:

Beschreibung:

Yann Kermadec springt für Franck ein, der kurz vor Start der Vendée Globe, der härtesten Einhandsegler-Regatta der Welt, wegen eines Unfalls ausscheiden musste. Ohne Angst vor Einsamkeit oder den Gefahren des Meeres verfolgt er konzentriert sein Ziel. Nach einer Ruderreparatur auf den Kanaren entdeckt der Skipper wenige Tage später einen blinden Passagier. Der könnte das ganze Unternehmen gefährden, denn die Weltumrundung muss allein geschafft werden. Die schwierige Reise wird für den Segler zu einer Reise zu sich selbst.



Complete name                            : fractal-turning.tide.zwischen.den.wellen.1080p.mkv
Format                                   : Matroska
Format version                           : Version 2
File size                                : 9.04 GiB
Duration                                 : 1h 41mn
Overall bit rate                         : 12.8 Mbps
Writing application                      : mkvmerge v4.1.1 ('Bouncin' Back') built on Jul  3 2010 22:54:08
Writing library                          : libebml v1.0.0 + libmatroska v1.0

Video
ID                                       : 1
Format                                   : AVC
Format/Info                              : Advanced Video Codec
Format profile                           : High@L4.1
Format settings, CABAC                   : Yes
Format settings, ReFrames                : 5 frames
Codec ID                                 : V_MPEG4/ISO/AVC
Duration                                 : 1h 41mn
Bit rate                                 : 11.0 Mbps
Width                                    : 1 920 pixels
Height                                   : 816 pixels
Display aspect ratio                     : 2.35:1
Frame rate mode                          : Constant
Frame rate                               : 23.976 fps
Color space                              : YUV
Chroma subsampling                       : 4:2:0
Bit depth                                : 8 bits
Scan type                                : Progressive
Bits/(Pixel*Frame)                       : 0.294
Stream size                              : 7.79 GiB (86%)
Writing library                          : x264 core 142 r2491 24e4fed
Encoding settings                        : cabac=1 / ref=5 / deblock=1:-1:-1 / analyse=0x3:0x133 / me=umh / subme=7 / psy=1 / psy_rd=1.00:0.15 / mixed_ref=1 / me_range=16 / chroma_me=1 / trellis=1 / 8x8dct=1 / cqm=0 / deadzone=21,11 / fast_pskip=0 / chroma_qp_offset=-3 / threads=12 / lookahead_threads=2 / sliced_threads=0 / nr=0 / decimate=1 / interlaced=0 / bluray_compat=0 / constrained_intra=0 / bframes=3 / b_pyramid=2 / b_adapt=1 / b_bias=0 / direct=3 / weightb=1 / open_gop=0 / weightp=2 / keyint=240 / keyint_min=23 / scenecut=40 / intra_refresh=0 / rc_lookahead=40 / rc=crf / mbtree=1 / crf=20.0 / qcomp=0.60 / qpmin=10 / qpmax=69 / qpstep=4 / ip_ratio=1.40 / aq=1:1.00
Language                                 : English
Default                                  : Yes
Forced                                   : No

Audio
ID                                       : 2
Format                                   : DTS
Format/Info                              : Digital Theater Systems
Mode                                     : 16
Format settings, Endianness              : Big
Codec ID                                 : A_DTS
Duration                                 : 1h 41mn
Bit rate mode                            : Constant
Bit rate                                 : 1 509 Kbps
Channel(s)                               : 6 channels
Channel positions                        : Front: L C R, Side: L R, LFE
Sampling rate                            : 48.0 KHz
Bit depth                                : 24 bits
Compression mode                         : Lossy
Stream size                              : 1.06 GiB (12%)
Language                                 : German
Default                                  : Yes
Forced                                   : No

Text
ID                                       : 3
Format                                   : UTF-8
Codec ID                                 : S_TEXT/UTF8
Codec ID/Info                            : UTF-8 Plain Text
Language                                 : German
Default                                  : Yes
Forced                                   : Yes


Download:
Share Online Share OnlineShare OnlineShare Online
 

Kommentare