Filecrypt zeigt vereinzelt Files als "n/a". Die Downloads sind trotzdem komplett.

DNS SERVER AENDERNum der staatlichen Zensur zu umgehen. Sollten wir von eurem Provider geseprrt werden, nutzt den TOR BROWSER oder ändert euren DNS SERVER.

Filmwünsche können bei uns im Forum abgegeben werden

Wir Speichern Nicht




 
 
 
Top Releases
The.Keeping.Hours.2017.Germa...
Der.die.Zeichen.liest.The.St...
Operation.Chromite.2016.Germ...
Jim.Knopf.und.Lukas.der.Loko...
Sicario.2.Soldado.2018.Germa...
Sicario.2.Soldado.2018.Germa...
Ein.Kind.zur.Zeit.German.DL....
Ein.Kind.zur.Zeit.German.DL....
Backstabbing.for.Beginners.2...
Backstabbing.for.Beginners.2...

Cinedubs
The.Happytime.Murders.Kein.S...
The.Happytime.Murders.Kein.S...
Peppermint.Angel.of.Vengeanc...
Peppermint.Angel.of.Vengeanc...
The.Nun.German.AC3D.DL.1080p...
Christopher.Robin.German.DL....
Christopher.Robin.German.DL....
A.Star.Is.Born.German.DL.AC3...
A.Star.Is.Born.German.DL.AC3...
Mission.Impossible.Fallout.G...

Neuerscheinungen 2017-18
Tage.wie.dieser.1996.German....
Romance.and.Cigarettes.2005....
Der.Boxer.1997.German.DL.108...
Wuff.Star.Weihnachten.2018.G...
Wuff.Star.Weihnachten.2018.G...
Der.sechste.Kontinent.1976.G...
Squirm.1976.MULTi.COMPLETE.B...
Strasse.der.Gewalt.White.Lin...
Darkman.II.The.Return.Of.Dur...
Spuk.von.draussen.1987.GERMA...

XXX
EvilAngel.Double.Duty.Booty....
EvilAngel.Double.Duty.Booty....
ATKGirlfriends.18.11.19.Kenz...
Anilos.18.11.20.Midge.Take.I...
ATKHairy.18.11.18.Lauren.Lau...
GirlFap.E67.Stephani.Moretti...
ATKGirlfriends.18.11.20.Gia....
AssTraffic.18.11.20.Alexis.C...
GirlFap.E68.Cayla.Lyons.Your...
ConorCoxxx.17.12.01.Kate.Eng...
Beauty-Angels.18.11.20.Jenif...
AllOver30.18.11.19.Lauren.Ph...
ConorCoxxx.17.12.15.Alura.Je...
ConorCoxxx.17.12.29.Marina.M...
ConorCoxxx.17.12.22.Payton.H...
ATKHairy.18.11.18.Nenetl.Avr...
BurningAngel.18.11.20.Rosaly...
BackroomCastingCouch.18.11.1...
AnalTeenAngels.18.11.20.Ange...
GirlsOutWest.18.11.19.Daliah...

3D
The.Art.of.Flight.3D.2011.Ge...
The.End.Of.The.World.3D.2010...
The.First.Avenger.Civil.War....
Die.Unglaublichen.2.2018.3D....
Skyscraper.3D.2018.MULTi.COM...
Ant-Man.And.The.Wasp.3D.2018...
Ant.Man.and.the.Wasp.3D.2018...
Die.Unglaublichen.2.3D.2018....
Die.Unglaublichen.2.2018.3D....
Die.Unglaublichen.2.2018.3D....
Sharknado.6.The.Last.One.3D....
Deep.Kleine.Helden.der.Tiefs...
Deep.3D.2017.MULTI.COMPLETE....
Detective.Dee.und.die.Legend...
Detective.Dee.und.die.Legend...

Old_Stuff
Dunkirk.1958.COMPLETE.BLURAY...
Das.Wunder.von.Manhattan.199...
The.Amazing.Spiderman.2.Rise...
Rise.of.the.Predator.2014.Ge...
Detective.Dee.und.das.Geheim...
Detective.Dee.Und.Der.Fluch....
Ghost.Rider.Spirit.of.Vengea...
Species.IV.Das.Erwachen.2007...
Species.IV.Das.Erwachen.2007...
Hotel.Transsilvanien.2012.Ge...
The.Dead.2010.German.DL.1080...
The.Dead.2.India.2013.German...
Britney.Spears.Live.The.Femm...
Buffy.The.Vampire.Slayer.199...
IMAX.Ride.Around.The.World.2...

Filme
Jim.Knopf.und.Lukas.der.Loko...
Mamma.Mia.Here.We.Go.Again.2...
Die.Reise.ins.Labyrinth.1986...
Tage.wie.dieser.1996.German....
Romance.and.Cigarettes.2005....
Der.Boxer.1997.German.720p.B...
D.Day.Allein.unter.Feinden.2...
Der.sechste.Kontinent.1976.G...
Alien.Resurrection.1997.Thea...
Topper.2.-.Das.Gespenstersch...
Mamma.Mia.Here.We.Go.Again.2...
Romance.and.Cigarettes.2005....
Lucky.Luke.1991.1992.3.Disc....
Mission.Impossible.Fallout.2...
Marvels.Agents.of.S.H.I.E.L....
Marvels.Agents.of.S.H.I.E.L....
Humans.S03.GERMAN.DL.720p.HD...
1000.Yards.Zwischen.Leben.un...
Dead.Draw.2016.GERMAN.DL.108...
Star.Wars.Episode.VIII.Die.l...
The.Return.of.the.First.Aven...
Angel.Town.UNCUT.REMASTERED....
Anger.of.the.Dead.2015.Germa...
Angriff.der.Killerbienen.199...

 
 
Der.Boxer.1997.German.DL.1080p.BluRay.x264-iNKLUSiON

Jahr: 1997
Genre: Drama, Sport
Sprache: Deutsch DTS | Englisch DTS
Laufzeit: 1h 53mn
Bitrate: 9 642 Kbps
Format: MKV
Größe: 7.64 GiB
Release:

Beschreibung:

Nach 14 Jahren Gefängnis kehrt der IRA-Kämpfer Danny Flynn wieder in die freie Welt zurück. Von Terror-Anschlägen will der 33jährige nichts mehr wissen, dafür umso mehr von Versöhnung. Der passionierte Boxer macht eine Schule auf, in der katholische und evangelische Jugendliche ihre Kräfte friedlich miteinander messen können. Als Danny sich auch noch seiner Jugendliebe Maggie zuwendet, wird er für seine alten Mitstreiter endgültig zum Feind. Denn Maggie ist mit einem inhaftierten IRA-Aktivisten verheiratet und gilt deshalb als unberührbar.



Complete name                            : inkl-theboxer.1997-1080p.mkv
Format                                   : Matroska
Format version                           : Version 4 / Version 2
File size                                : 7.64 GiB
Duration                                 : 1h 53mn
Overall bit rate                         : 9 642 Kbps
Encoded date                             : UTC 2018-11-23 20:15:05
Writing application                      : mkvmerge v9.0.1 ('Obstacles') 64bit
Writing library                          : libebml v1.3.3 + libmatroska v1.4.4
DURATION                                 : 01:53:29.270000000
NUMBER_OF_FRAMES                         : 638369
NUMBER_OF_BYTES                          : 653689856
_STATISTICS_WRITING_APP                  : mkvmerge v9.0.1 ('Obstacles') 64bit
_STATISTICS_WRITING_DATE_UTC             : 2018-11-23 20:15:05
_STATISTICS_TAGS                         : BPS DURATION NUMBER_OF_FRAMES NUMBER_OF_BYTES

Video
ID                                       : 1
Format                                   : AVC
Format/Info                              : Advanced Video Codec
Format profile                           : High@L4.1
Format settings, CABAC                   : Yes
Format settings, ReFrames                : 4 frames
Codec ID                                 : V_MPEG4/ISO/AVC
Duration                                 : 1h 53mn
Bit rate                                 : 8 620 Kbps
Width                                    : 1 920 pixels
Height                                   : 1 040 pixels
Display aspect ratio                     : 1.85:1
Frame rate mode                          : Constant
Frame rate                               : 23.976 fps
Color space                              : YUV
Chroma subsampling                       : 4:2:0
Bit depth                                : 8 bits
Scan type                                : Progressive
Bits/(Pixel*Frame)                       : 0.180
Stream size                              : 6.68 GiB (87%)
Writing library                          : x264 core 157 r2935 545de2f
Encoding settings                        : cabac=1 / ref=4 / deblock=1:-1:-1 / analyse=0x3:0x113 / me=umh / subme=7 / psy=1 / psy_rd=1.00:0.00 / mixed_ref=1 / me_range=16 / chroma_me=1 / trellis=1 / 8x8dct=1 / cqm=0 / deadzone=21,11 / fast_pskip=0 / chroma_qp_offset=-2 / threads=12 / lookahead_threads=2 / sliced_threads=0 / nr=0 / decimate=1 / interlaced=0 / bluray_compat=0 / constrained_intra=0 / bframes=3 / b_pyramid=2 / b_adapt=1 / b_bias=0 / direct=3 / weightb=1 / open_gop=0 / weightp=2 / keyint=250 / keyint_min=23 / scenecut=40 / intra_refresh=0 / rc_lookahead=40 / rc=2pass / mbtree=1 / bitrate=8620 / ratetol=1.0 / qcomp=0.60 / qpmin=0 / qpmax=69 / qpstep=4 / cplxblur=20.0 / qblur=0.5 / ip_ratio=1.40 / aq=1:1.00
Default                                  : Yes
Forced                                   : No

Audio #1
ID                                       : 2
Format                                   : DTS
Format/Info                              : Digital Theater Systems
Mode                                     : 16
Format settings, Endianness              : Big
Codec ID                                 : A_DTS
Duration                                 : 1h 53mn
Bit rate mode                            : Constant
Bit rate                                 : 255 Kbps
Channel(s)                               : 2 channels
Channel positions                        : Front: L R
Sampling rate                            : 48.0 KHz
Bit depth                                : 24 bits
Compression mode                         : Lossy
Stream size                              : 207 MiB (3%)
Language                                 : German
Default                                  : Yes
Forced                                   : No

Audio #2
ID                                       : 3
Format                                   : DTS
Format/Info                              : Digital Theater Systems
Mode                                     : 16
Format settings, Endianness              : Big
Codec ID                                 : A_DTS
Duration                                 : 1h 53mn
Bit rate mode                            : Constant
Bit rate                                 : 768 Kbps
Channel(s)                               : 6 channels
Channel positions                        : Front: L C R, Side: L R, LFE
Sampling rate                            : 48.0 KHz
Bit depth                                : 24 bits
Compression mode                         : Lossy
Stream size                              : 623 MiB (8%)
Language                                 : English
Default                                  : No
Forced                                   : No


Download:
Share Online Share OnlineShare OnlineShare Online
 

Kommentare