Filecrypt zeigt vereinzelt Files als "n/a". Die Downloads sind trotzdem komplett.

DNS SERVER AENDERNum der staatlichen Zensur zu umgehen. Sollten wir von eurem Provider geseprrt werden, nutzt den TOR BROWSER oder ändert euren DNS SERVER.

Filmwünsche können bei uns im Forum abgegeben werden

Wir Speichern Nicht




 
 
 
Top Releases
Pin.Cushion.2017.German.DL.1...
Destination.Wedding.2018.MUL...
Papillon.2017.MULTI.COMPLETE...
Papillon.2017.GERMAN.DL.1080...
The.Bouncer.2018.German.AC3....
The.Bouncer.2018.German.AC3....
Belle.und.Sebastian.Freunde....
Papillon.2017.GERMAN.720p.Bl...
Belle.und.Sebastian.Freunde....
Predator.Upgrade.German.DL.A...

Cinedubs
Halloween.German.DL.AC3.Dubb...
Halloween.German.DL.AC3.Dubb...
Freaky.Friday.German.DL.AC3....
Freaky.Friday.German.DL.AC3....
Jupiters.Moon.2017.GERMAN.AC...
Jupiters.Moon.2017.GERMAN.AC...
Venom.German.DL.AC3.Dubbed.1...
Venom.German.DL.AC3.Dubbed.7...
Das.Haus.der.geheimnisvollen...
Das.Haus.der.geheimnisvollen...

Neuerscheinungen 2017-18
Unter.der.Flagge.des.Tigers....
FahrraddiebeLadri.di.bicicle...
Die.Pyramide.des.Sonnengotte...
Der.Schatz.der.Azteken.1965....
Gold.1934.German.COMPLETE.BL...
Schneefloeckchen.2017.COMPLE...
Belle.und.Sebastian.Freunde....
Jeepers.Creepers.II.2003.DUA...
Liliane.Susewind.Ein.tierisc...
Boarding.School.2018.German....

XXX
HotAndMean.18.11.25.Maserati...
LANewGirl.18.11.18.Carmen.2....
LethalHardcore.Cross.Eyed.Co...
LaurenPhillips.15.05.13.Red....
KarupsPC.18.11.24.Shona.Rive...
MatureNL.18.10.12.Ellen.B.An...
Hitzefrei.18.09.10.Jolee.Lov...
LaurenPhillips.15.07.18.Teas...
MatureNL.18.10.19.Elen.Milli...
JapanHDV.18.11.26.Mayo.Kurod...
KarupsHA.18.11.26.Violet.Vix...
Hitzefrei.18.09.05.Marie.Sky...
LaurenPhillips.15.07.08.Happ...
MatureNL.18.10.05.Alexa.Blun...
Killergram.18.11.24.Kittina....
Hitzefrei.18.09.07.LadyKinky...
LaurenPhillips.15.06.09.Lelo...
Hitzefrei.18.09.14.Bonny.Dev...
LANewGirl.18.11.17.Carmen.2....
LaurenPhillips.15.06.23.Carm...

3D
The.Art.of.Flight.3D.2011.Ge...
The.End.Of.The.World.3D.2010...
The.First.Avenger.Civil.War....
Die.Unglaublichen.2.2018.3D....
Skyscraper.3D.2018.MULTi.COM...
Ant-Man.And.The.Wasp.3D.2018...
Ant.Man.and.the.Wasp.3D.2018...
Die.Unglaublichen.2.3D.2018....
Die.Unglaublichen.2.2018.3D....
Die.Unglaublichen.2.2018.3D....
Sharknado.6.The.Last.One.3D....
Deep.Kleine.Helden.der.Tiefs...
Deep.3D.2017.MULTI.COMPLETE....
Detective.Dee.und.die.Legend...
Detective.Dee.und.die.Legend...

Old_Stuff
Akte.X.S03.German.DTS.DL.108...
Dunkirk.1958.COMPLETE.BLURAY...
Das.Wunder.von.Manhattan.199...
The.Amazing.Spiderman.2.Rise...
Rise.of.the.Predator.2014.Ge...
Detective.Dee.und.das.Geheim...
Detective.Dee.Und.Der.Fluch....
Ghost.Rider.Spirit.of.Vengea...
Species.IV.Das.Erwachen.2007...
Species.IV.Das.Erwachen.2007...
Hotel.Transsilvanien.2012.Ge...
The.Dead.2010.German.DL.1080...
The.Dead.2.India.2013.German...
Britney.Spears.Live.The.Femm...
Buffy.The.Vampire.Slayer.199...

Filme
Arthur.2011.German.DL.1080p....
The.Expanse.S02D01-3.MULTi.C...
Arsene.Lupin.der.Millionendi...
Hangover.3.2013.German.AC3D....
Arthur.1981.German.DL.1080p....
Killjoys.S04.German.DD51.Dub...
Killjoys.S04.German.DD51.Dub...
The.Walking.Dead.S08D1-3.UNC...
Marvels.Agents.of.S.H.I.E.L....
Marvels.Agents.of.S.H.I.E.L....
Das.Boot.2018.S01.GERMAN.108...
Das.Boot.2018.S01.GERMAN.720...
Assassination.Games.2011.Ger...
Krypton.S01.German.DD51.Dubb...
Krypton.S01.GERMAN.DUBBED.72...
The.Expanse.S02.COMPLETE.Ger...
The.Expanse.S02.COMPLETE.Ger...
Die.Conners.S01.German.DD51....
Die.Conners.S01.German.DD51....
Arthur.2.On.the.Rocks.1988.G...
Arlo.und.Spot.2015.German.DL...
Armee.der.Frankensteins.2013...
Armageddon.Das.juengste.Geri...
Armee.im.Schatten.1969.Germa...

 
 
Arsene.Lupin.der.Millionendieb.1957.German.1080p.BluRay.x264-WOMBAT

Jahr: 1957
Genre: Krimi
Sprache: Deutsch DTS
Laufzeit: 1h 43mn
Bitrate: 11.1 Mbps
Format: MKV
Größe: 8.04 GiB
Release:

Beschreibung:

Gentlemangauner Arsène Lupin hat sich darauf spezialisiert, den Reichen ihren kostbaren Schmuck und ihre Gemälde abzuknöpfen. Dabei erweist er sich als so geschickt, dass sein Ruf bis zum deutschen Kaiser Wilhelm II. dringt. Der lässt Lupin nach Deutschland verschleppen, weil er ihn auf eine ganz besondere Probe stellen möchte.



Complete name                            : w-arlu-1080p.mkv
Format                                   : Matroska
Format version                           : Version 2
File size                                : 8.04 GiB
Duration                                 : 1h 43mn
Overall bit rate                         : 11.1 Mbps
Encoded date                             : UTC 2015-03-21 14:30:29
Writing application                      : mkvmerge v3.3.0 ('Language') gebaut am Mar 24 2010 14:59:24
Writing library                          : libebml v0.8.0 + libmatroska v0.9.0

Video
ID                                       : 1
Format                                   : AVC
Format/Info                              : Advanced Video Codec
Format profile                           : High@L4.1
Format settings, CABAC                   : Yes
Format settings, ReFrames                : 4 frames
Codec ID                                 : V_MPEG4/ISO/AVC
Duration                                 : 1h 43mn
Bit rate                                 : 9 401 Kbps
Width                                    : 1 440 pixels
Height                                   : 1 080 pixels
Display aspect ratio                     : 4:3
Frame rate mode                          : Constant
Frame rate                               : 24.000 fps
Color space                              : YUV
Chroma subsampling                       : 4:2:0
Bit depth                                : 8 bits
Scan type                                : Progressive
Bits/(Pixel*Frame)                       : 0.252
Stream size                              : 6.79 GiB (84%)
Writing library                          : x264 core 146 r2538 121396c
Encoding settings                        : cabac=1 / ref=4 / deblock=1:0:0 / analyse=0x3:0x113 / me=umh / subme=7 / psy=1 / psy_rd=1.00:0.00 / mixed_ref=1 / me_range=16 / chroma_me=1 / trellis=1 / 8x8dct=1 / cqm=0 / deadzone=21,11 / fast_pskip=0 / chroma_qp_offset=-2 / threads=9 / lookahead_threads=1 / sliced_threads=0 / nr=0 / decimate=1 / interlaced=0 / bluray_compat=0 / constrained_intra=0 / bframes=3 / b_pyramid=2 / b_adapt=1 / b_bias=0 / direct=1 / weightb=1 / open_gop=0 / weightp=2 / keyint=250 / keyint_min=24 / scenecut=40 / intra_refresh=0 / rc_lookahead=40 / rc=crf / mbtree=1 / crf=20.0 / qcomp=0.60 / qpmin=0 / qpmax=69 / qpstep=4 / ip_ratio=1.40 / aq=1:1.00
Language                                 : German
Default                                  : No
Forced                                   : No

Audio
ID                                       : 2
Format                                   : DTS
Format/Info                              : Digital Theater Systems
Mode                                     : 16
Format settings, Endianness              : Big
Codec ID                                 : A_DTS
Duration                                 : 1h 43mn
Bit rate mode                            : Constant
Bit rate                                 : 1 509 Kbps
Channel(s)                               : 2 channels
Channel positions                        : Front: L R
Sampling rate                            : 48.0 KHz
Bit depth                                : 16 bits
Compression mode                         : Lossy
Stream size                              : 1.09 GiB (14%)
Title                                    : German
Language                                 : German
Default                                  : Yes
Forced                                   : No



Download:
Share Online Share OnlineShare OnlineShare Online
 

Kommentare