Filecrypt zeigt vereinzelt Files als "n/a". Die Downloads sind trotzdem komplett.

DNS SERVER AENDERNum der staatlichen Zensur zu umgehen. Sollten wir von eurem Provider geseprrt werden, nutzt den TOR BROWSER oder ändert euren DNS SERVER.

Filmwünsche können bei uns im Forum abgegeben werden

Wir Speichern Nicht




 
 
 
Top Releases
Hotel.Artemis.German.DL.720p...
Hotel.Artemis.German.DL.1080...
Dead.in.a.Week.Oder.Geld.zur...
Dead.in.a.Week.Oder.Geld.zur...
Die.Welt.gehoert.dir.2018.Ge...
Die.Welt.gehoert.dir.2018.Ge...
Paradox.Kill.Zone.Bangkok.20...
Paradox.Kill.Zone.Bangkok.20...
Hotel.Artemis.2018.DUAL.COMP...
Dead.in.a.Week.2018.COMPLETE...

Cinedubs
Halloween.German.DL.AC3.Dubb...
Halloween.German.DL.AC3.Dubb...
Freaky.Friday.German.DL.AC3....
Freaky.Friday.German.DL.AC3....
Jupiters.Moon.2017.GERMAN.AC...
Jupiters.Moon.2017.GERMAN.AC...
Venom.German.DL.AC3.Dubbed.1...
Venom.German.DL.AC3.Dubbed.7...
Das.Haus.der.geheimnisvollen...
Das.Haus.der.geheimnisvollen...

Neuerscheinungen 2017-18
Reprisal.Nimm.Dir.was.Dir.ge...
Reprisal.Nimm.Dir.was.Dir.ge...
American.Romance.2016.GERMAN...
American.Romance.2016.GERMAN...
A.Christmas.Prince.The.Royal...
A.Christmas.Prince.The.Royal...
Pony.Express.1953.MULTi.COMP...
Antz.1998.MULTi.COMPLETE.BLU...
Unter.der.Flagge.des.Tigers....
FahrraddiebeLadri.di.bicicle...

XXX
HotAndMean.18.11.25.Maserati...
LANewGirl.18.11.18.Carmen.2....
LethalHardcore.Cross.Eyed.Co...
LaurenPhillips.15.05.13.Red....
KarupsPC.18.11.24.Shona.Rive...
MatureNL.18.10.12.Ellen.B.An...
Hitzefrei.18.09.10.Jolee.Lov...
LaurenPhillips.15.07.18.Teas...
MatureNL.18.10.19.Elen.Milli...
JapanHDV.18.11.26.Mayo.Kurod...
KarupsHA.18.11.26.Violet.Vix...
Hitzefrei.18.09.05.Marie.Sky...
LaurenPhillips.15.07.08.Happ...
MatureNL.18.10.05.Alexa.Blun...
Killergram.18.11.24.Kittina....
Hitzefrei.18.09.07.LadyKinky...
LaurenPhillips.15.06.09.Lelo...
Hitzefrei.18.09.14.Bonny.Dev...
LANewGirl.18.11.17.Carmen.2....
LaurenPhillips.15.06.23.Carm...

3D
The.Art.of.Flight.3D.2011.Ge...
The.End.Of.The.World.3D.2010...
The.First.Avenger.Civil.War....
Die.Unglaublichen.2.2018.3D....
Skyscraper.3D.2018.MULTi.COM...
Ant-Man.And.The.Wasp.3D.2018...
Ant.Man.and.the.Wasp.3D.2018...
Die.Unglaublichen.2.3D.2018....
Die.Unglaublichen.2.2018.3D....
Die.Unglaublichen.2.2018.3D....
Sharknado.6.The.Last.One.3D....
Deep.Kleine.Helden.der.Tiefs...
Deep.3D.2017.MULTI.COMPLETE....
Detective.Dee.und.die.Legend...
Detective.Dee.und.die.Legend...

Old_Stuff
Akte.X.S03.German.DTS.DL.108...
Dunkirk.1958.COMPLETE.BLURAY...
Das.Wunder.von.Manhattan.199...
The.Amazing.Spiderman.2.Rise...
Rise.of.the.Predator.2014.Ge...
Detective.Dee.und.das.Geheim...
Detective.Dee.Und.Der.Fluch....
Ghost.Rider.Spirit.of.Vengea...
Species.IV.Das.Erwachen.2007...
Species.IV.Das.Erwachen.2007...
Hotel.Transsilvanien.2012.Ge...
The.Dead.2010.German.DL.1080...
The.Dead.2.India.2013.German...
Britney.Spears.Live.The.Femm...
Buffy.The.Vampire.Slayer.199...

Filme
Meg.2018.German.DL.720p.BluR...
Meg.2018.German.DL.1080p.Blu...
Bound.-.Gefesselt.1996.Signa...
Die.Farbe.des.Horizonts.2018...
Assassination.2015.German.DT...
The.Idealist.Geheimakte.Groe...
Three.Night.Stand.Urlaub.bei...
Ass.Backwards.Die.Schoensten...
Asphaltrennen.1971.GERMAN.DU...
Arthur.und.die.Minimoys.2.Di...
Arthur.2011.German.DL.1080p....
The.Expanse.S02D01-3.MULTi.C...
Arsene.Lupin.der.Millionendi...
Hangover.3.2013.German.AC3D....
Arthur.1981.German.DL.1080p....
Killjoys.S04.German.DD51.Dub...
Killjoys.S04.German.DD51.Dub...
The.Walking.Dead.S08D1-3.UNC...
Marvels.Agents.of.S.H.I.E.L....
Marvels.Agents.of.S.H.I.E.L....
Das.Boot.2018.S01.GERMAN.108...
Das.Boot.2018.S01.GERMAN.720...
Assassination.Games.2011.Ger...
Krypton.S01.German.DD51.Dubb...

 
 
Paradox.Kill.Zone.Bangkok.2017.German.720p.BluRay.x264-ENCOUNTERS

Jahr: 2017
Genre: Action
Sprache: Deutsch DTS
Laufzeit: 1h 39mn
Bitrate: 4 070 Kbps
Format: MKV
Größe: 2.84 GiB
Release:

Beschreibung:

Die Entführung seiner Tochter führt den Cop Lee Chung Chi von Hongkong nach Bangkok. Dort stößt er auf einen Organhandelsring, deren Beteiligte vor nichts zurückschrecken. Auch örtlichen Polizisten stehen der groß angelegten Verschwörung machtlos gegenüber. Dem verzweifelten Vater schwindet bald die Hoffnung, seine Tochter in der thailändischen Metropole lebend zu finden. Wie weit ist er bereit zu gehen?



Complete name                            : encounters-pakizoba_720p.mkv
Format                                   : Matroska
Format version                           : Version 4 / Version 2
File size                                : 2.84 GiB
Duration                                 : 1h 39mn
Overall bit rate                         : 4 070 Kbps
Encoded date                             : UTC 2018-11-29 20:35:32
Writing application                      : mkvmerge v8.5.0 ('Vanishing Act') 64bit
Writing library                          : libebml v1.3.1 + libmatroska v1.4.2
DURATION                                 : 00:37:35.837000000
NUMBER_OF_FRAMES                         : 6
NUMBER_OF_BYTES                          : 185
_STATISTICS_WRITING_APP                  : mkvmerge v8.5.0 ('Vanishing Act') 64bit
_STATISTICS_WRITING_DATE_UTC             : 2018-11-29 20:35:32
_STATISTICS_TAGS                         : BPS DURATION NUMBER_OF_FRAMES NUMBER_OF_BYTES

Video
ID                                       : 1
Format                                   : AVC
Format/Info                              : Advanced Video Codec
Format profile                           : High@L4.1
Format settings, CABAC                   : Yes
Format settings, ReFrames                : 5 frames
Codec ID                                 : V_MPEG4/ISO/AVC
Duration                                 : 1h 39mn
Bit rate                                 : 2 480 Kbps
Width                                    : 1 280 pixels
Height                                   : 544 pixels
Display aspect ratio                     : 2.35:1
Frame rate mode                          : Constant
Frame rate                               : 23.976 fps
Color space                              : YUV
Chroma subsampling                       : 4:2:0
Bit depth                                : 8 bits
Scan type                                : Progressive
Bits/(Pixel*Frame)                       : 0.149
Stream size                              : 1.73 GiB (61%)
Title                                    : encounters-pakizoba_720p
Writing library                          : x264 core 157 r2935 545de2f
Encoding settings                        : cabac=1 / ref=5 / deblock=1:-1:-1 / analyse=0x3:0x133 / me=umh / subme=7 / psy=1 / psy_rd=1.00:0.15 / mixed_ref=1 / me_range=16 / chroma_me=1 / trellis=1 / 8x8dct=1 / cqm=0 / deadzone=21,11 / fast_pskip=0 / chroma_qp_offset=-3 / threads=17 / lookahead_threads=2 / sliced_threads=0 / nr=0 / decimate=1 / interlaced=0 / bluray_compat=0 / constrained_intra=0 / bframes=3 / b_pyramid=2 / b_adapt=1 / b_bias=0 / direct=1 / weightb=1 / open_gop=0 / weightp=2 / keyint=250 / keyint_min=23 / scenecut=40 / intra_refresh=0 / rc_lookahead=40 / rc=crf / mbtree=1 / crf=20.0 / qcomp=0.60 / qpmin=0 / qpmax=69 / qpstep=4 / ip_ratio=1.40 / aq=1:1.00
Default                                  : Yes
Forced                                   : No

Audio
ID                                       : 2
Format                                   : DTS
Format/Info                              : Digital Theater Systems
Mode                                     : 16
Format settings, Endianness              : Big
Codec ID                                 : A_DTS
Duration                                 : 1h 39mn
Bit rate mode                            : Constant
Bit rate                                 : 1 509 Kbps
Channel(s)                               : 6 channels
Channel positions                        : Front: L C R, Side: L R, LFE
Sampling rate                            : 48.0 KHz
Bit depth                                : 24 bits
Compression mode                         : Lossy
Stream size                              : 1.05 GiB (37%)
Title                                    : German DTS 5.1 @ 1 509 kb/s
Language                                 : German
Default                                  : Yes
Forced                                   : No

Text
ID                                       : 3
Format                                   : UTF-8
Codec ID                                 : S_TEXT/UTF8
Codec ID/Info                            : UTF-8 Plain Text
Title                                    : ger_forced.srt
Language                                 : German
Default                                  : Yes
Forced                                   : Yes


Download:
Share Online Share OnlineShare OnlineShare Online
 

Kommentare