DNS SERVER AENDERNum der staatlichen Zensur zu umgehen. Sollten wir von eurem Provider geseprrt werden, nutzt den TOR BROWSER oder ändert euren DNS SERVER.

Filmwünsche können bei uns im Forum abgegeben werden

Wir Speichern Nicht




 
 
 
Top Releases
Stronger.2017.German.720p.Bl...
Stronger.2017.German.DL.1080...
Nur.Gott.kann.mich.richten.2...
Nur.Gott.kann.mich.richten.2...
Endspiel.2018.German.DL.Doku...
Endspiel.2018.German.DL.Doku...
Deadpool.2.THEATRiCAL.2018.G...
Deadpool.2.THEATRiCAL.2018.G...
Mercury.13.2018.German.DL.Do...
Mercury.13.2018.German.DL.Do...

Cinedubs
The.Equalizer.2.TS.LD.German...
Der.Hauptmann.2017.German.AA...
Der.Hauptmann.2017.German.AA...
Ghost.Stories.2017.German.AC...
Ghost.Stories.2017.German.AC...
Oceans.8.German.DL.AC3.Dubbe...
Oceans.8.German.DL.AC3.Dubbe...
Hereditary.Das.Vermaechtnis....
Hereditary.Das.Vermaechtnis....
Oceans.8.2018.German.DL.AC3D...

Neuerscheinungen 2017-18
Kings.2017.German.720p.BluRa...
Kings.2017.German.DL.1080p.B...
Winchester.Das.Haus.der.Verd...
Bodycheck.Youngblood.1986.MU...
The.End.2017.GERMAN.DUAL.COM...
The.End.2017.GERMAN.1080p.Bl...
Vater.des.Jahres.2018.German...
The.End.2017.GERMAN.720p.Blu...
Derren.Brown.The.Push.2018.G...
Derren.Brown.The.Push.2018.G...

XXX
WankItNow.17.09.02.Tammie.Le...
TrueAnal.18.08.16.Jillian.Ja...
WildOnCam.18.08.20.Alana.Cru...
WickedPictures.Camera.Angle....
TransAngels.18.08.06.Valenti...
Tiny4K.18.08.16.Chloe.Temple...
WankItNow.17.09.11.Candi.Kay...
WetAndPuffy.18.08.15.Sophia....
VivThomas.18.08.17.Adel.More...
WildOnCam.18.08.21.Melody.Pa...
TransAngels.18.08.13.Domino....
TonightsGirlfriend.18.08.17....
WickedPictures.Camera.Angle....
TrueAnal.18.08.21.Brooke.Ber...
WetAndPissy.18.08.21.Anna.Ra...
Throated.18.08.17.Zoey.Foxx....
Vixen.18.08.17.Emily.Willis....
Time.To.Fuck.XXX.720p.WEBRip...
WhiteGhetto.18.08.21.Lynn.Lo...
TransAngels.18.08.04.Aubrey....

3D
Avengers.Infinity.War.3D.201...
Rampage.Big.Meets.Bigger.3D....
Rampage.Big.Meets.Bigger.3D....
Rampage.Big.Meets.Bigger.3D....
Winter.Games.3D.2013.DUAL.CO...
Tomb.Raider.3D.2018.German.7...
Rampage.Big.Meets.Bigger.3D....
Rampage.Big.Meets.Bigger.3D....
Tomb.Raider.3D.2018.MULTi.CO...
Pacific.Rim.Uprising.3D.2018...
Ready.Player.One.3D.2018.Ger...
Rampage.-.Big.Meets.Bigger.2...
Ready.Player.One.2018.3D.HOU...
Ready.Player.One.2018.3D.HSB...
Ready.Player.One.3D.2018.MUL...

Old_Stuff
21.2008.German.DL.1080p.BluR...
Achtung.fertig.WK.Swissgerma...
The.Ouija.Exorcism.2015.MULT...
Meine.liebe.Rabenmutter.germ...
Da.Vincis.Demons.S01.Complet...
Eragon.Das.Vermaechtnis.der....
Adele.und.das.Geheimnis.des....
Die.fabelhafte.Welt.der.Amel...
Haus.des.Geldes.S01.German.M...
How.I.Met.Your.Mother.S01.Ge...
The.Dark.Knight.Rises.2012.M...
Weissensee.S03.2015.GERMAN.C...
Weissensee.S01+S02.2010.GERM...
Die.Unglaublichen.-.The.Incr...
Der.grosse.Trick.1978.German...

Filme
Celeste.und.Jesse.German.DL....
CBGB.2013.GERMAN.AC3D.DL.108...
Unsere.Erde.2.2017.German.DT...
Unsere.Erde.2.2017.German.DT...
Unsere.Erde.2.2017.German.DT...
Winchester.Das.Haus.der.Verd...
Cabal.-.Die.Brut.der.Nacht.C...
Car.Wash.1976.German.AC3D.DL...
Feuer.ueber.England.1937.Ger...
Sin.City.2005.DTS-HD.German....
Elliot.das.Schmunzelmonster....
Nur.fuer.Offiziere.1964.Germ...
The.Last.Man.On.Earth.S04.Ge...
The.Last.Man.On.Earth.S04.Ge...
Arrow.S06.GERMAN.DL.1080p.HD...
Arrow.S06.GERMAN.DL.720p.HDT...
Razorback.Kampfkoloss.der.Ho...
Rails.and.Ties.-.Aufbruch.in...
Deadpool.2.Super.Duper.Cut.2...
Passenger.Legs.of.Steel.2015...
Fear.The.Walking.Dead.S04.Ge...
Fear.The.Walking.Dead.S04.Ge...
Complications.S01.COMPLETE.G...
Blood.And.Flowers.Der.Waecht...

 
 
Da.Vincis.Demons.S02.COMPLETE.GERMAN.DL.DUBBED.720p.WebHD.x264-TVP

Jahr: 2014
Genre: Abenteuer | Drama | Fantasy
Sprache: Deutsch AC3 | Englisch AC3
Laufzeit: 54min je Folge
Bitrate: 4100 Kbps
Format: MKV
Größe: 1,8 GB je Folge
Release:

Beschreibung:

Dreist, aber brillant, ist der 25-jährige Leonardo da Vinci (Tom Riley) Künstler, Erfinder, Fechter, Liebhaber, Träumer und Idealist zugleich. Als gestandener Trinker mit Verstand und Talenten, die zumeist übermenschlich sind, tut er sich schwer darin, innerhalb der Grenzen seiner eigenen Realität und Zeit zu leben. Er beginnt nicht nur die Zukunft zu sehen, sondern sie zu erfinden. Aber als Visionär muss er wiederum mit den Widerständen seiner Umgebung klarkommen.

 

enthaltene Folgen :

Da.Vincis.Demons.S02E01.Der.Saft.des.Lebens.GERMAN.DL.DUBBED.720p.WebHD.x264-TVP 

Da.Vincis.Demons.S02E02.Das.Blut.der.Brueder.GERMAN.DL.DUBBED.720p.WebHD.x264-TVP

Da.Vincis.Demons.S02E03.Die.Reise.der.Verdammten.GERMAN.DL.DUBBED.720p.WebHD.x264-TVP

Da.Vincis.Demons.S02E04.Am.Ende.der.Welt.GERMAN.DL.DUBBED.720p.WebHD.x264-TVP

Da.Vincis.Demons.S02E05.Die.Sonne.und.der.Mond.GERMAN.DL.DUBBED.720p.WebHD.x264-TVP

Da.Vincis.Demons.S02E06.Das.Seil.der.Toten.GERMAN.DL.DUBBED.720p.WebHD.x264-TVP

Da.Vincis.Demons.S02E07.Das.Gewoelbe.des.Himmels.GERMAN.DL.DUBBED.720p.WebHD.x264-TVP

Da.Vincis.Demons.S02E08.Der.Sturz.vom.Himmel.GERMAN.DL.DUBBED.720p.WebHD.x264-TVP

Da.Vincis.Demons.S02E09.Die.Feinde.der.Menschheit.GERMAN.DL.DUBBED.720p.WebHD.x264-TVP

Da.Vincis.Demons.S02E10.Die.Suenden.des.Daedalus.GERMAN.DL.DUBBED.720p.WebHD.x264-TVP NEU



General
Complete name                            : Da.Vincis.Demons.S02E01.Der.Saft.des.Lebens.GERMAN.DL.DUBBED.720p.WebHD.x264-TVP\tvp-davincis-s02e01-720p.mkv
Format                                   : Matroska
Format version                           : Version 2
File size                                : 1.83 GiB
Duration                                 : 54mn 47s
Overall bit rate                         : 4 780 Kbps
Movie name                               : Da.Vincis.Demons.S02E01.Der.Saft.des.Lebens.GERMAN.DL.DUBBED.720p.WebHD.x264-TVP
Encoded date                             : UTC 2014-03-30 19:51:55
Writing application                      : mkvmerge v5.0.1 ('Es ist Sommer') built on Jul  4 2012 14:50:23
Writing library                          : libebml v1.2.2 + libmatroska v1.3.0

Video
ID                                       : 1
Format                                   : AVC
Format/Info                              : Advanced Video Codec
Format profile                           : Main@L3.1
Format settings, CABAC                   : No
Format settings, ReFrames                : 2 frames
Format settings, GOP                     : N=1
Codec ID                                 : V_MPEG4/ISO/AVC
Duration                                 : 54mn 47s
Bit rate                                 : 4 109 Kbps
Width                                    : 960 pixels
Height                                   : 718 pixels
Display aspect ratio                     : 16:9
Frame rate mode                          : Constant
Frame rate                               : 25.000 fps
Color space                              : YUV
Chroma subsampling                       : 4:2:0
Bit depth                                : 8 bits
Scan type                                : Progressive
Bits/(Pixel*Frame)                       : 0.238
Stream size                              : 1.57 GiB (86%)
Default                                  : Yes
Forced                                   : No
Color primaries                          : BT.709
Transfer characteristics                 : BT.709
Matrix coefficients                      : BT.709

Audio #1
ID                                       : 2
Format                                   : AC-3
Format/Info                              : Audio Coding 3
Mode extension                           : CM (complete main)
Format settings, Endianness              : Big
Codec ID                                 : A_AC3
Duration                                 : 54mn 47s
Bit rate mode                            : Constant
Bit rate                                 : 192 Kbps
Channel(s)                               : 2 channels
Channel positions                        : Front: L R
Sampling rate                            : 48.0 KHz
Bit depth                                : 16 bits
Compression mode                         : Lossy
Stream size                              : 75.2 MiB (4%)
Language                                 : German
Default                                  : Yes
Forced                                   : Yes

Audio #2
ID                                       : 3
Format                                   : AC-3
Format/Info                              : Audio Coding 3
Mode extension                           : CM (complete main)
Format settings, Endianness              : Big
Codec ID                                 : A_AC3
Duration                                 : 54mn 47s
Bit rate mode                            : Constant
Bit rate                                 : 384 Kbps
Channel(s)                               : 6 channels
Channel positions                        : Front: L C R, Side: L R, LFE
Sampling rate                            : 48.0 KHz
Bit depth                                : 16 bits
Compression mode                         : Lossy
Stream size                              : 150 MiB (8%)
Language                                 : English
Default                                  : No
Forced                                   : No



Download:
Share-Online.biz Share-Online.bizShare-Online.bizShare-Online.biz | Uploaded.net Uploaded.netUploaded.netUploaded.net | OBOOM.com OBOOM.comOBOOM.comOBOOM.com
 

Kommentare